Introducción
La Guarida del Lobo Solitario es una comunidad virtual donde compartimos programas, juegos, música, películas, información, recursos y mucho más, en forma totalmente gratuita.

Para acceder a las descargas o publicar mensajes debes registrarte. Es gratis, fácil y rápido.

Más información
Usuarios: 582799
Último registrado: xpsycho
Mensajes: 2276981
Temas: 826342
Usuarios conectados
Suscripción por email
Suscríbete aquí y recibe en tu email un resumen diario de nuestras últimas descargas.
Más información.
Anuncios especiales
¡ATENCIÓN! Necesitamos 120 dólares antes del 15-oct-2019 para el pago mensual de nuestro servidor web. Nos faltan 120 dólares.
ATTENTION! We need 120 dollars before 15-oct-2019 to make the montly payment of our web server. We need 120 dollars.
Si deseas colaborar, envía un mensaje privado a LoneWolf (aquí) para obtener más información.
If you want to collaborate, please send a private message to LoneWolf (here) to get more information.
Hemos recolectado un 0,00% del monto total.
We have collected 0,00% of the total amount.
Páginas: 1
  Imprimir  
Tema: WrestleMania 35 (2019)[HDTV 1080p][Español][1/1][10GB][VS] (Leído 171 veces)
parrix
[email protected] Sigma
**
Desconectado Desconectado

Mensajes: 82


Tema iniciado: 11-Abr-2019, 12:18









WrestleMania 35

Promoción: WWE
Marca: Raw, SmackDown Live, 205 Live
Patrocinador: Snickers
Fecha:   7 de abril de 2019
Asistentes: 82.2651?2?
Recinto: MetLife Stadium
Lugar: East Rutherford, Nueva Jersey
Tema: Work de Chris Classic, Love Runs Out de One Republic





Calidad: HDTV 1080p
Formato: MKV
Duración: 5 horas y 25 min.
Resolución: 1920x1080p
Video: AVC x264
Audio: Español AAC 2.0 48000 Hz
Comentaritas: Carlos Cabrera (Colombia), Marcelo Rodríguez (Venezuela)
Tamaño: 10 GB
Subtítulos: No
By: Parrix





Descomprimir con winrar, 7zip o programa similar



MediaInfo:

Código:

General
Complete name : WWE.WrestleMania.35.1O8O.mkv (by parrix)
Format   : MPEG-4
Format profile     : Base Media / Version 2
Codec ID : mp42 (mp42)
File size     : 10.5 GiB
Duration : 5 h 24 min
Overall bit rate   : 4 638 kb/s
Codirector    : codirector
Production studio : studio
ContentType   : Unknown Type
Encoded date : UTC 2019-04-08 06:49:46
Tagged date   : UTC 2019-04-08 06:49:46
FileExtension_Invalid   : mov mp4 m4v m4a m4b m4p 3ga 3gpa 3gpp 3gp 3gpp2 3g2 k3g jpm jpx mqv ismv isma ismt f4a f4b f4v

Video
ID : 1
Format   : AVC
Format/Info   : Advanced Video Codec
Format profile     : [email protected]
Format settings    : CABAC / 2 Ref Frames
Format settings, CABAC : Yes
Format settings, RefFrames  : 2 frames
Muxing mode   : Container [email protected]
Codec ID : avc1
Codec ID/Info : Advanced Video Coding
Duration : 5 h 24 min
Source duration    : 5 h 24 min
Bit rate : 4 502 kb/s
Width    : 1 920 pixels
Height   : 1 080 pixels
Display aspect ratio    : 16:9
Frame rate mode    : Constant
Frame rate    : 29.970 (30000/1001) FPS
Color space   : YUV
Chroma subsampling : 4:2:0
Bit depth     : 8 bits
Scan type     : Progressive
Bits/(Pixel*Frame) : 0.072
Stream size   : 10.2 GiB (97%)
Source stream size : 10.2 GiB (97%)
Language : Spanish

Audio
ID : 2
Format   : AAC
Format/Info   : Advanced Audio Codec
Format profile     : LC
Codec ID : mp4a-40-2
Duration : 5 h 24 min
Bit rate mode : Constant
Bit rate : 128 kb/s
Channel(s)    : 2 channels
Channel positions : Front: L R
Sampling rate : 48.0 kHz
Frame rate    : 46.875 FPS (1024 SPF)
Compression mode   : Lossy
Stream size   : 297 MiB (3%)
Title    : Stereo
Language : Spanish
Default : Yes
Alternate group    : 1






WrestleMania 35 es la trigésima quinta edición de WrestleMania, evento pague-por-ver de lucha libre profesional producido por la WWE. Tuvo lugar el 7 de abril de 2019, en el MetLife Stadium en la ciudad de Nueva Jersey, Nueva York.









Se recomienda descargar con JDownloader v2, Mipony o programa similar



Descarga todo de un servidor FREE + 1 parte NO FREE











[HIDE]
Código:

https://safelinking.net/myyjz63

[/HIDE]


Visita mi perfil para ver todos mis aportes




En línea
Páginas: 1
  Imprimir  
 

Powered by SMF 1.1.21 | SMF © 2006-2009, Simple Machines | LoboSolitario.com © 2002-2019 por LoneWolf | Reglamento | Condiciones generales de uso