Introducción
La Guarida del Lobo Solitario es una comunidad virtual donde compartimos programas, juegos, música, películas, información, recursos y mucho más, en forma totalmente gratuita.

Para acceder a las descargas o publicar mensajes debes registrarte. Es gratis, fácil y rápido.

Más información
Usuarios: 582790
Último registrado: ateliegilpadua
Mensajes: 2276676
Temas: 826106
Usuarios conectados
Registrados: 9
Visitantes: 74
Total: 83

En el foro:

No hay usuarios en el chat.
Suscripción por email
Suscríbete aquí y recibe en tu email un resumen diario de nuestras últimas descargas.
Más información.
Anuncios especiales
¡ATENCIÓN! Necesitamos 120 dólares antes del 15-oct-2019 para el pago mensual de nuestro servidor web. Nos faltan 120 dólares.
ATTENTION! We need 120 dollars before 15-oct-2019 to make the montly payment of our web server. We need 120 dollars.
Si deseas colaborar, envía un mensaje privado a LoneWolf (aquí) para obtener más información.
If you want to collaborate, please send a private message to LoneWolf (here) to get more information.
Hemos recolectado un 0,00% del monto total.
We have collected 0,00% of the total amount.
Páginas: 1
  Imprimir  
Tema: MotoGP - Moto 2 - Moto 3 (Temporada 2019)[MicroHD 1080p/720p][Castellano][3/19] (Leído 153 veces)
parrix
[email protected] Sigma
**
Desconectado Desconectado

Mensajes: 82


Tema iniciado: 29-Mar-2019, 12:42









Temporada 2019 de MotoGP
Emision: MotoGP/DAZN
Proveedores de neumáticos: Michelin, Dunlop Tyres
Comentaristas y colaboradores: Álex Crivillé, Carlos Checa, Ernest Riveras, Izaskun Ruiz, Natacha Alfageme, Juan Martínez, Ricard Jové

Calidad: MicroHD 1080p/720p
Formato: MKV
Resolución: 1920x1080p
Video: AVC
Audio: Castellano AC3 Stereo
Tamaño: De 3 a 9 GB Aprox.
Subtítulos: NO



MediaInfo:

Código:

General
Unique ID     : 217659251955818282979425117378254899641 (0xA3BFA5A871078DE68B80157DD86689B9)
Complete name : D:\M0t0GP.19.GP1.Qatar.1O8O.mkv
Format   : Matroska
Format version     : Version 4 / Version 2
File size     : 9.36 GiB
Duration : 1 h 14 min
Overall bit rate   : 17.9 Mb/s
Movie name    : M0t0GP.19.GP1.Qatar.1O8O.mkv
Encoded date : UTC 2019-03-11 16:00:02
Writing application     : mkvmerge v6.6.0 ('The Edge Of The In Between') built on Dec  1 2013 17:55:00
Writing library    : libebml v1.3.0 + libmatroska v1.4.1

Video
ID : 1
Format   : AVC
Format/Info   : Advanced Video Codec
Format profile     : [email protected]
Format settings    : CABAC / 3 Ref Frames
Format settings, CABAC : Yes
Format settings, RefFrames  : 3 frames
Codec ID : V_MPEG4/ISO/AVC
Duration : 1 h 14 min
Bit rate : 17.9 Mb/s
Width    : 1 920 pixels
Height   : 1 080 pixels
Display aspect ratio    : 16:9
Frame rate mode    : Constant
Frame rate    : 25.000 FPS
Color space   : YUV
Chroma subsampling : 4:2:0
Bit depth     : 8 bits
Scan type     : Progressive
Bits/(Pixel*Frame) : 0.345
Stream size   : 9.07 GiB (97%)
Title    : M0t0GP.19.GP1.Qatar.1O8O.mkv
Writing library    : x264 core 148
Encoding settings : cabac=1 / ref=3 / deblock=1:-1:-1 / analyse=0x3:0 / me=hex / subme=5 / psy=1 / psy_rd=1.00:0.00 / mixed_ref=0 / me_range=16 / chroma_me=1 / trellis=1 / 8x8dct=1 / cqm=0 / deadzone=21,11 / fast_pskip=0 / chroma_qp_offset=0 / threads=4 / lookahead_threads=1 / sliced_threads=0 / nr=0 / decimate=1 / interlaced=0 / bluray_compat=0 / constrained_intra=0 / bframes=2 / b_pyramid=0 / b_adapt=1 / b_bias=0 / direct=1 / weightb=0 / open_gop=0 / weightp=0 / keyint=24 / keyint_min=2 / scenecut=40 / intra_refresh=0 / rc=2pass / mbtree=0 / bitrate=17900 / ratetol=1.0 / qcomp=0.60 / qpmin=0 / qpmax=69 / qpstep=4 / cplxblur=20.0 / qblur=0.5 / ip_ratio=1.40 / pb_ratio=1.30 / aq=1:1.00
Language : Spanish
Default : Yes
Forced   : No
Color range   : Limited
Color primaries    : BT.709
Transfer characteristics    : BT.709
Matrix coefficients     : BT.709

Audio
ID : 2
Format   : AC-3
Format/Info   : Audio Coding 3
Format settings, Endianness : Big
Codec ID : A_AC3
Duration : 1 h 14 min
Bit rate mode : Constant
Bit rate : 192 kb/s
Channel(s)    : 2 channels
Channel positions : Front: L R
Sampling rate : 48.0 kHz
Frame rate    : 31.250 FPS (1536 SPF)
Bit depth     : 16 bits
Compression mode   : Lossy
Delay relative to video : 80 ms
Stream size   : 103 MiB (1%)
Title    : M0t0GP.19.GP1.Qatar.1O8O.mkv
Language : Spanish
Service kind : Complete Main
Default : Yes
Forced   : No




Descomprimir con winrar, 7zip o programa similar.







El Campeonato del Mundo de Motociclismo pero que popularmente recibe el nombre de la categoría principal de MotoGP, es la máxima competición mundial de motociclismo de velocidad.

La temporada 2019 del Campeonato del Mundo de Motociclismo es la 71ª edición desde que se iniciara el Mundial en 1949. Comenzará el 10 de marzo en Losail, (Catar) y terminará el 17 de noviembre en Valencia, (España). Para esta temporada finalmente se optó por no agregar mas carreras al calendario, después de que se había propuesto agregar a México y Finlandia.










Descarga todo de un servidor FREE + 1 parte NO FREE

Para descargar tener abierto JDownloader v2, Mipony o programa similar
















GP 1 - Qatar







Carrera MotoGP:




[HIDE]
Código:

https://safelinking.net/ug5fq73

[/HIDE]




Carrera Moto2:




[HIDE]
Código:

https://safelinking.net/f7DHhJA

[/HIDE]




Carrera Moto3:




[HIDE]
Código:

https://safelinking.net/8LJJZaJ

[/HIDE]




GP 2 - Argentina







Carrera MotoGP:




[HIDE]
Código:

https://safelinking.net/xgbuKwN

[/HIDE]




Carrera Moto2:




[HIDE]
Código:

https://safelinking.net/os2DBLU

[/HIDE]




Carrera Moto3:




[HIDE]
Código:

https://safelinking.net/j3cjmBA

[/HIDE]




GP 3 - Gran Premio de las Américas







Carrera MotoGP:




[HIDE]
Código:

https://safelinking.net/6Y92YK4

[/HIDE]




Carrera Moto2:




[HIDE]
Código:

https://safelinking.net/jRhK4cn

[/HIDE]




Carrera Moto3:




[HIDE]
Código:

https://safelinking.net/A1G4Tgj

[/HIDE]


Visita mi perfil para ver todos mis aportes




« Última modificación: 16-Abr-2019, 01:54 por parrix » En línea
parrix
[email protected] Sigma
**
Desconectado Desconectado

Mensajes: 82


Respuesta nº 1: 03-Abr-2019, 01:46

Añadida la segunda carrera, que aproveche!
En línea
parrix
[email protected] Sigma
**
Desconectado Desconectado

Mensajes: 82


Respuesta nº 2: 16-Abr-2019, 03:12

Añadida la carrera 3, carreron!
En línea
Páginas: 1
  Imprimir  
 

Powered by SMF 1.1.21 | SMF © 2006-2009, Simple Machines | LoboSolitario.com © 2002-2019 por LoneWolf | Reglamento | Condiciones generales de uso