Introducción
La Guarida del Lobo Solitario es una comunidad virtual donde compartimos programas, juegos, música, películas, información, recursos y mucho más, en forma totalmente gratuita.

Para acceder a las descargas o publicar mensajes debes registrarte. Es gratis, fácil y rápido.

Más información
Usuarios: 582736
Último registrado: tadlhvuong
Mensajes: 2275203
Temas: 825134
Usuarios conectados
Registrados: 9
Visitantes: 28
Total: 37

En el foro:

No hay usuarios en el chat.
Suscripción por email
Suscríbete aquí y recibe en tu email un resumen diario de nuestras últimas descargas.
Más información.
Anuncios especiales
¡ATENCIÓN! Necesitamos 120 dólares antes del 15-oct-2019 para el pago mensual de nuestro servidor web. Nos faltan 120 dólares.
ATTENTION! We need 120 dollars before 15-oct-2019 to make the montly payment of our web server. We need 120 dollars.
Si deseas colaborar, envía un mensaje privado a LoneWolf (aquí) para obtener más información.
If you want to collaborate, please send a private message to LoneWolf (here) to get more information.
Hemos recolectado un 0,00% del monto total.
We have collected 0,00% of the total amount.
Páginas: 1
  Imprimir  
Tema: Los Gipsy Kings (2019)[T.5][HDTV 720p][Castellano][Reality][6/-][1,7GB][VS] (Leído 2396 veces)
parrix
[email protected] Sigma
**
Desconectado Desconectado

Mensajes: 82


Tema iniciado: 14-Mar-2019, 00:48









Género   Docu-reality
Narrador   Teté Delgado
País de origen   España
Idioma(s)   Español
Productores   La Competencia Producciones
Productores ejecutivos   Mediaset España
Dirección   Jacobo Eireos





Calidad: HDTV 720p
Formato: MKV
Resolución: 1280x720p
Video: AVC
Audio: Castellano AAC
Tamaño: 1,76 GB





Descomprimir con winrar, 7zip o programa similar.



MediaInfo:

Código:

General
Complete name : C:\Users\User\Desktop\Los.Gipsy.Kings.72Op.5x01.mkv
Format   : MPEG-4
Format profile     : Base Media
Codec ID : isom (isom/iso2/avc1/mp41)
File size     : 1.76 GiB
Duration : 1 h 32 min
Overall bit rate mode   : Constant
Overall bit rate   : 2 731 kb/s
Writing application     : Lavf58.20.100
FileExtension_Invalid   : mov mp4 m4v m4a m4b m4p 3ga 3gpa 3gpp 3gp 3gpp2 3g2 k3g jpm jpx mqv ismv isma ismt f4a f4b f4v

Video
ID : 1
Format   : AVC
Format/Info   : Advanced Video Codec
Format profile     : [email protected]
Format settings    : 1 Ref Frames
Format settings, CABAC : No
Format settings, RefFrames  : 1 frame
Codec ID : avc1
Codec ID/Info : Advanced Video Coding
Duration : 1 h 32 min
Bit rate mode : Constant
Bit rate : 2 600 kb/s
Width    : 1 280 pixels
Height   : 720 pixels
Display aspect ratio    : 16:9
Frame rate mode    : Constant
Frame rate    : 25.000 FPS
Standard : PAL
Color space   : YUV
Chroma subsampling : 4:2:0
Bit depth     : 8 bits
Scan type     : Progressive
Bits/(Pixel*Frame) : 0.113
Stream size   : 1.68 GiB (95%)
Color range   : Limited
Color primaries    : BT.601 PAL
Transfer characteristics    : BT.601
Matrix coefficients     : BT.470 System B, BT.470 System G

Audio
ID : 2
Format   : AAC
Format/Info   : Advanced Audio Codec
Format profile     : LC
Codec ID : mp4a-40-2
Duration : 1 h 32 min
Bit rate mode : Constant
Bit rate : 126 kb/s
Channel(s)    : 2 channels
Channel positions : Front: L R
Sampling rate : 44.1 kHz
Frame rate    : 43.066 FPS (1024 SPF)
Compression mode   : Lossy
Stream size   : 83.0 MiB (5%)
Default : Yes
Alternate group    : 1






Los Gipsy Kings es un programa de televisión de la productora La Competencia Producciones para el canal de televisión Cuatro. Su estreno tuvo lugar el domingo, 8 de febrero de 2015.

TEMPORADA 5: Nada se les resiste y nos lo demostraron en la temporada pasada pero, ¿qué les deparará la próxima? Permanece atento porque el programa más loco de la televisión regresa muy pronto a Cuatro.










Descarga todo de un servidor FREE + 1 parte NO FREE

Para descargar tener abierto JDownloader v2, Mipony o programa similar














5x01:

[HIDE]
Código:

https://safelinking.net/GY7zbb8

[/HIDE]


5x02:

[HIDE]
Código:

https://safelinking.net/Ep8E4FY

[/HIDE]


5x03:

[HIDE]
Código:

https://safelinking.net/AXb25bb

[/HIDE]

5x04:

[HIDE]
Código:

https://safelinking.net/SKggYTs

[/HIDE]

5x05:

[HIDE]
Código:

https://safelinking.net/dXTrtdW

[/HIDE]

5x06:

[HIDE]
Código:

https://safelinking.net/x6GyRjA

[/HIDE]



Visita mi perfil para ver todos mis aportes




« Última modificación: 14-Abr-2019, 17:41 por parrix » En línea
parrix
[email protected] Sigma
**
Desconectado Desconectado

Mensajes: 82


Respuesta nº 1: 28-Mar-2019, 18:57

Añadidos los capitulos 2 y 3, lo siento por el pequeño restrasillo, a partir de ahora los vais a tener mucho mas rapido, salu2!
En línea
parrix
[email protected] Sigma
**
Desconectado Desconectado

Mensajes: 82


Respuesta nº 2: 04-Abr-2019, 07:51

Añadido el capitulo 4, salu2!
En línea
parrix
[email protected] Sigma
**
Desconectado Desconectado

Mensajes: 82


Respuesta nº 3: 06-Abr-2019, 22:47

Añadido programa 5.
En línea
parrix
[email protected] Sigma
**
Desconectado Desconectado

Mensajes: 82


Respuesta nº 4: 14-Abr-2019, 18:17

Añadido programa 6, a disfrutar!
En línea
Páginas: 1
  Imprimir  
 

Powered by SMF 1.1.21 | SMF © 2006-2009, Simple Machines | LoboSolitario.com © 2002-2019 por LoneWolf | Reglamento | Condiciones generales de uso