Introducción
La Guarida del Lobo Solitario es una comunidad virtual donde compartimos programas, juegos, música, películas, información, recursos y mucho más, en forma totalmente gratuita.

Para acceder a las descargas o publicar mensajes debes registrarte. Es gratis, fácil y rápido.

Más información
Usuarios: 582799
Último registrado: xpsycho
Mensajes: 2276920
Temas: 826291
Usuarios conectados
Registrados: 12
Visitantes: 26
Total: 38

En el foro:

No hay usuarios en el chat.
Suscripción por email
Suscríbete aquí y recibe en tu email un resumen diario de nuestras últimas descargas.
Más información.
Anuncios especiales
¡ATENCIÓN! Necesitamos 120 dólares antes del 15-oct-2019 para el pago mensual de nuestro servidor web. Nos faltan 120 dólares.
ATTENTION! We need 120 dollars before 15-oct-2019 to make the montly payment of our web server. We need 120 dollars.
Si deseas colaborar, envía un mensaje privado a LoneWolf (aquí) para obtener más información.
If you want to collaborate, please send a private message to LoneWolf (here) to get more information.
Hemos recolectado un 0,00% del monto total.
We have collected 0,00% of the total amount.
Páginas: 1
  Imprimir  
Tema: FIA RallyCross Championship (2019)[HDTV 720p][Español][1/11][VS] (Leído 117 veces)
parrix
[email protected] Sigma
**
Desconectado Desconectado

Mensajes: 82


Tema iniciado: 17-Abr-2019, 01:55









Campeonato Mundial de Rallycross
Temporada actual Temporada 2019
Categoría Rallycross
Temporada inicial 2014
Ámbito Internacional
Rondas 12
Ganadores
Piloto campeón Johan Kristoffersson
Escudería campeona PSRX Volkswagen Sweden
Participantes
Pilotos   19 + pilotos sustitutos y no permanentes
Escuderías 10
Constructores Audi, Citroën, Ford, Hyundai, MINI, Peugeot, Volkswagen
Neumáticos Cooper Tires


Calendario 2019 del Mundial de Rallycross
#      País           Circuito             Fecha
1.       Abu Dhabi      Yas Marina            5 y 6 de abril
2.       España        Barcelona             27 y 28 de abril
3.       Bélgica        Spa-Francorchamps   11 y 12 de mayo
4.       Gran Bretaña   Silverstone            25 y 26 mayo
5      Noruega      Hell                  15 y 16 de junio
6.       Suecia         Höljes                6 y 7 de julio
7.       Canadá       Trois-Rivières          3 y 4 de agosto
8.       Francia       Lohéac               31 de agosto y 1 de septiembre
9.       Letonia       Riga                 14 y 15 de septiembre
10.      EE.UU.        Austin                28 y 29 de septiembre
11.      Sudáfrica      Ciudad del Cabo      30 de noviembre y 1 de diciembre





Calidad: HDTV 720p
Fuente: Fox Sports 3
Formato: MKV
Resolución: 1280x720p
Video: AVC H264
Audio: Español AAC 2.0 48000 KHz
Comentaristas: Pablo Esquilachi, Raúl Barceló
Tamaño: 1,3 GB
Subtítulos: No
By: Parrix





Descomprimir con winrar, 7zip o programa similar



MediaInfo:

Código:

General
Complete name    : RallyCross.GP1.Abu.Dhabi.mkv
Format : MPEG-4
Format profile   : Base Media / Version 2
Codec ID    : mp42 (mp42)
File size   : 1.57 GiB
Duration    : 1 h 40 min
Overall bit rate : 2 234 kb/s
Codirector : codirector
Production studio     : studio
ContentType : Unknown Type
Encoded date     : UTC 2019-04-06 17:48:05
Tagged date : UTC 2019-04-06 17:48:05
FileExtension_Invalid : mov mp4 m4v m4a m4b m4p m4r 3ga 3gpa 3gpp 3gp 3gpp2 3g2 k3g jpm jpx mqv ismv isma ismt f4a f4b f4v

Video
ID     : 1
Format : AVC
Format/Info : Advanced Video Codec
Format profile   : [email protected]
Format settings : CABAC / 2 Ref Frames
Format settings, CABAC     : Yes
Format settings, ReFrames : 2 frames
Format settings, GOP : M=3, N=25
Muxing mode : Container [email protected]
Codec ID    : avc1
Codec ID/Info    : Advanced Video Coding
Duration    : 1 h 40 min
Bit rate    : 2 099 kb/s
Width : 1 280 pixels
Height : 720 pixels
Display aspect ratio : 16:9
Frame rate mode : Constant
Frame rate : 30.000 FPS
Color space : YUV
Chroma subsampling    : 4:2:0
Bit depth   : 8 bits
Scan type   : Progressive
Bits/(Pixel*Frame)    : 0.076
Stream size : 1.47 GiB (94%)
Language    : English
Encoded date     : UTC 1953-04-05 17:48:05
Tagged date : UTC 1953-04-05 17:48:05
Codec configuration box    : avcC

Audio
ID     : 2
Format : AAC LC
Format/Info : Advanced Audio Codec Low Complexity
Codec ID    : mp4a-40-2
Duration    : 1 h 40 min
Bit rate mode    : Constant
Bit rate    : 128 kb/s
Channel(s) : 2 channels
Channel layout   : L R
Sampling rate    : 48.0 kHz
Frame rate : 46.875 FPS (1024 SPF)
Compression mode : Lossy
Stream size : 92.0 MiB (6%)
Title : Stereo
Language    : English
Default     : Yes
Alternate group : 1
Encoded date     : UTC 1953-04-05 17:48:05
Tagged date : UTC 1953-04-05 17:48:05






El Campeonato Mundial de Rallycross, abreviado WRX, es un campeonato de rallycross que se disputa desde el año 2014. Es organizado por la FIA en conjunto con la empresa IMG Motorsport que en 2013 se convirtió en promotora del certamen y nació a partir del Campeonato de Europa de Rallycross con la incorporación de fechas en Canadá y Argentina, aunque el Campeonato Europeo continúa existiendo compartiendo fechas y con un calendario reducido.









Se recomienda descargar con JDownloader v2, Mipony o programa similar



Descarga todo de un servidor FREE + 1 parte NO FREE











GP1 - Abu Dhabi



[HIDE]
Código:

https://safelinking.net/x185fhM

[/HIDE]


Visita mi perfil para ver todos mis aportes




En línea
Páginas: 1
  Imprimir  
 

Powered by SMF 1.1.21 | SMF © 2006-2009, Simple Machines | LoboSolitario.com © 2002-2019 por LoneWolf | Reglamento | Condiciones generales de uso