LoboSolitario.com

Descargas => Videos => Mensaje iniciado por: parrix en 11-Abr-2019, 18:06



Título: Boxeo WBC Campeonato Semi Pesado CMB/Peso Welter CMB (2019)[HDTV 720p][Español]
Publicado por: parrix en 11-Abr-2019, 18:06

(https://i.ibb.co/kyNjR4x/wbc.jpg)

(https://i.ibb.co/1ZBkZsL/wbc2.jpg)


(https://i.ibb.co/MCwJcDf/Ficha-Tecnica5.png)



WCB: Consejo Mundial de Boxeo

- Campeonato Semi Pesado del CMB

- Peso Welter Pesado del CMB

(Campeonato Semi Pesado del CMB- 12 Rounds)

- Oleksandr Gvozdyk 174.7 lbs vs. Doudou Ngumbu 174.3 lbs

(Peso Welter – 10 Rounds)

- Egidijus “Mean Machine” Kavaliauskas 146.1 lbs vs. Ray Robinson145.8 lbs


Presidente: Mauricio Sulaimán
Fundador: Adolfo López Mateos
Fundación: 1963
Tipo: Organización sancionadora de Boxeo
Acrónimo: WBC CMB
Sede central: Ciudad de México, México





Calidad: HDTV 720p
Formato: MKV
Fuente: ESPN+/GOLDEN
Duración: 75 min.
Resolución: 1280x720p
Video: AVC x264
Audio: Español AAC 2.0 48000 KHz
Tamaño: 1,28 GB
Subtítulos: No
By: Parrix





Descomprimir con winrar, 7zip o programa similar



MediaInfo:

Código:

General
Complete name    : Boxeo.WBC.mkv
Format : MPEG-4
Format profile   : Base Media / Version 2
Codec ID    : mp42 (mp42)
File size   : 1.28 GiB
Duration    : 1 h 18 min
Overall bit rate mode : Variable
Overall bit rate : 2 337 kb/s
Codirector : codirector
Production studio     : studio
ContentType : Unknown Type
Encoded date     : UTC 2019-03-31 04:35:09
Tagged date : UTC 2019-03-31 04:35:09
FileExtension_Invalid : mov mp4 m4v m4a m4b m4p m4r 3ga 3gpa 3gpp 3gp 3gpp2 3g2 k3g jpm jpx mqv ismv isma ismt f4a f4b f4v

Video
ID     : 1
Format : AVC
Format/Info : Advanced Video Codec
Format profile   : [email protected]
Format settings : CABAC / 2 Ref Frames
Format settings, CABAC     : Yes
Format settings, ReFrames : 2 frames
Format settings, GOP : M=3, N=24
Muxing mode : Container [email protected]
Codec ID    : avc1
Codec ID/Info    : Advanced Video Coding
Duration    : 1 h 18 min
Bit rate mode    : Variable
Bit rate    : 2 202 kb/s
Maximum bit rate : 3 300 kb/s
Width : 1 280 pixels
Height : 720 pixels
Display aspect ratio : 16:9
Frame rate mode : Constant
Frame rate : 30.000 FPS
Color space : YUV
Chroma subsampling    : 4:2:0
Bit depth   : 8 bits
Scan type   : Progressive
Bits/(Pixel*Frame)    : 0.080
Stream size : 1.20 GiB (94%)
Language    : English
Encoded date     : UTC 1953-03-30 04:35:09
Tagged date : UTC 1953-03-30 04:35:09
Codec configuration box    : avcC

Audio
ID     : 2
Format : AAC LC
Format/Info : Advanced Audio Codec Low Complexity
Codec ID    : mp4a-40-2
Duration    : 1 h 18 min
Source duration : 1 h 18 min
Bit rate mode    : Constant
Bit rate    : 128 kb/s
Channel(s) : 2 channels
Channel layout   : L R
Sampling rate    : 44.1 kHz
Frame rate : 43.066 FPS (1024 SPF)
Compression mode : Lossy
Stream size : 71.7 MiB (5%)
Source stream size    : 71.7 MiB (5%)
Title : Stereo
Language    : English
Default     : Yes
Alternate group : 1
Encoded date     : UTC 1953-03-30 04:35:10
Tagged date : UTC 1953-03-30 04:35:10


(https://i.ibb.co/fFQfVHn/Descripcion5.png)




- El Consejo Mundial de Boxeo fue inicialmente creado por 11 países: Estados Unidos, Argentina, Inglaterra, Francia, México, Filipinas, Panamá, Chile, Perú, Venezuela y Brasil, para crear una organización que lograra unificar todas las comisiones del mundo para controlar la expansión del boxeo.


Eventos:


(Campeonato Semi Pesado del CMB- 12 Rounds)

- Oleksandr Gvozdyk 174.7 lbs vs. Doudou Ngumbu 174.3 lbs


(Peso Welter – 10 Rounds)

- Egidijus “Mean Machine” Kavaliauskas 146.1 lbs vs. Ray Robinson145.8 lbs




(https://i.ibb.co/y627NSK/Capturas5.png)


(https://i.ibb.co/ZKB2wYJ/boxcap.jpg)


Se recomienda descargar con JDownloader v2, Mipony o programa similar

(https://image.ibb.co/nCXOux/Mipony_Jdownloader.png)

Descarga todo de un servidor FREE + 1 parte NO FREE

(https://i.ibb.co/XpzdZbB/Download5.png)

(https://i.ibb.co/yPVS9bw/Users-Cloud.png)
(https://i.ibb.co/cX9XLsj/UpLoaded.png)
(https://i.ibb.co/H24gwbm/KatFile.png)
(https://i.ibb.co/QbYzTwL/Rapid-Gator.png)

(https://image.ibb.co/mrqbEx/Links_Intercambiables.png)


[HIDE]
Código:

https://safelinking.net/eaZhPb3

[/HIDE]


Visita mi perfil para ver todos mis aportes


(https://image.ibb.co/kTJDux/Agradecer_solo_cuesta_1_click_Agradece_y_ser_s_agradecido.gif)